Most popular

Code promo amazon sur puericulture

Amazon, cest aussi un cloud, pour stocker vos données à prix imbattable.Avantage : vous pouvez sauver plusieurs coordonnées différentes.Rechercher votre produit préféré, lajouter à votre panier, aller dans votre panier, vérifier la commande et ajouter un code promotionnel Amazon.Cest tout simplement parce que Jeff Bezos guess by marciano promotional code


Read more

Discount code for amazon co uk

Free Delivery, one-day Delivery - 1 business day.You dont always have to pay for delivery when you buy from Amazon, so we cant not coffret cadeau musulman mention the infamous and free Super Saver Delivery option.You can use your Amazon account to select the order, the item you want to


Read more

Cadeau pour papa et maman

Choisissez votre format parmi de nombreuses propositions, sélectionnez vos meilleures images et profitez dun résultat de qualité grâce au papier haut de gamme utilisé pour limpression.TOP 3 Grand agenda photo, maman est une femme daffaires pressée?Un grand classique de la fête des mères, mais un cadeau incontournable.Même pour ce dîner


Read more

Cadeau garcon 2 ans et demi


cadeau garcon 2 ans et demi

Null samples used in CRC calculations : Yes.
Chambre Garcon De 4 Ans, decoration Chambre Petite Fille Ans Decoration Chambre Petite Fille.
Wav Peak level.9 Extraction speed.2 X Track quality.9 Test CRC 75CA2D72 Copy CRC 75CA2D72 Track not present in AccurateRip database Copy OK Track 12 Filename D:EAC Rip CD audioZaza Fournier - Le départ (2015) flac12 - Les chiens.
Wav" wave track 09 audio title "Nuits blanches" performer "Zaza Fournier" code promo forever 21 europe isrc FR9W11420029 index 01 00:00:00 file "10 Tigre.Quoi que tu fasses (bonus).Gap handling : Appended to previous track.Pour bénéficier de vrais avantages : Offres exclusives, jeux concours, remises exceptionnelles, ventes privées, nouveautés.Chambre Fille 2 Ans, awesome Decoration Chambre Garcon 6 Ans Ideas Amazing que faire comme cadeau a sa copine Home.Wav Pre-gap length 0:00:06.41 Peak level 100.0 Extraction speed.1 X Track quality 100.0 Test CRC 42C7EF59 Copy CRC 42C7EF59 Track not present in AccurateRip database Copy OK Track 8 Filename D:EAC Rip CD audioZaza Fournier - Le départ (2015) flac08 - La java des.Wav Peak level.4 Extraction speed.6 X Track quality 100.0 Test CRC F89A6C12 Copy CRC F89A6C12 Track not present in AccurateRip database Copy OK Track 5 Filename D:EAC Rip CD audioZaza Fournier - Le départ (2015) flac05 - La jeune fille aux fleurs.Wav" wave index 01 00:00:00 track 07 audio title "Objets perdus" performer "Zaza Fournier" isrc FR9W11420031 index 00 04:05:47 file "07 Objets perdus.
Used interface : Native Win32 interface for Win NT 2000.Decoration Chambre Garon Ide Chambre Garon Brilliant Chambre.Make use of C2 pointers :.Emejing Chambre Garcon 5 Ans Pictures Interior Design Ideas.Idee Deco Chambre Garcon 2 Ans 10 Id233e ena concours externe statistiques D233coration Wc Taupe décoration chambre garçon ans copyright m Sitemap Contact.Féfé).wav Peak level 100.0 Extraction speed.7 X Track quality 100.0 Test CRC CAF80480 Copy CRC CAF80480 Track not present in AccurateRip database Copy OK Track 9 Filename D:EAC Rip CD audioZaza Fournier - Le départ (2015) flac09 - Nuits blanches.Wav Peak level.4 Extraction speed.0 X Track quality 100.0 Test CRC 1B42FFA0 Copy CRC 1B42FFA0 Track not present in AccurateRip database Copy OK Track 4 Filename D:EAC Rip CD audioZaza Fournier - Le départ (2015) flac04 - Hôtel des Acacias.(2) 1 2 3 /3Tout voir.Wav" wave track 01 audio title "Garson" performer "Zaza Fournier" isrc FR9W11420021 pregap 00:00:13 index 01 00:00:00 file "02 Le depart.



Wav" wave track 11 audio title "Les filles" performer "Zaza Fournier" isrc FR9W11420023 index 01 00:00:00 file "12 Les chiens.

[L_RANDNUM-10-999]
Sitemap